» » Learn To Play Sex Pistols with Danny Gill

Learn To Play Sex Pistols with Danny Gill

Learn To Play Sex Pistols with Danny Gill

Learn To Play Sex Pistols with Danny Gill
DVD5 | English | VIDEO_TS | 720 x 576 | MPEG2 ~4980 kbps | 25 fps
AC-3 192 Kbps 48.0 KHz | 2 channels | 01:55:35 | 3.98 GB
Genre: eLearning Video / Guitar lesson
Learn five Sex Pistols songs note for note with Danny Gill


This excellent DVD will take you step by step through five songs by the UKs most famous punk band. Lessons include:

Anarchy In The UK
Problems
Holiday In The Sun
Pretty Vacant
God Save The Queen

General
Complete name : VTS_04_1.VOB
Format : MPEG-PS
File size : 420 MiB
Duration : 11 min 7 s
Overall bit rate mode : Variable
Overall bit rate : 5 277 kb/s

Video
ID : 224 (0xE0)
Format : MPEG Video
Format version : Version 2
Format profile : Main@Main
Format settings : BVOP
Format settings, BVOP : Yes
Format settings, Matrix : Default
Format settings, GOP : M=3, N=12
Format settings, picture structure : Frame
Duration : 40 ms
Bit rate mode : Variable
Bit rate : 4 980 kb/s
Maximum bit rate : 7 000 kb/s
Width : 720 pixels
Height : 576 pixels
Display aspect ratio : 16:9
Frame rate : 25.000 FPS
Standard : PAL
Color space : YUV
Chroma subsampling : 4:2:0
Bit depth : 8 bits
Scan type : Interlaced
Scan order : Bottom Field First
Compression mode : Lossy
Bits/(Pixel*Frame) : 0.480
Time code of first frame : 00:00:00:00
Time code source : Group of pictures header
GOP, Open/Closed : Open
GOP, Open/Closed of first frame : Closed
Stream size : 24.3 KiB (0%)

Audio
ID : 189 (0xBD)-128 (0x80)
Format : AC-3
Format/Info : Audio Coding 3
Muxing mode : DVD-Video
Duration : 11 min 7 s
Bit rate mode : Constant
Bit rate : 192 kb/s
Channel(s) : 2 channels
Channel positions : Front: L R
Sampling rate : 48.0 kHz
Frame rate : 31.250 FPS (1536 SPF)
Bit depth : 16 bits
Compression mode : Lossy
Stream size : 15.3 MiB (4%)
Service kind : Complete Main

Menu

Screenshots






DOWNLOAD
(Buy premium account for maximum speed and resuming ability)